View Single Post
  #106774  
Old 08-08-2013, 23:20
love6985's Avatar
love6985 love6985 is offline
Đã tốn tiền
 
Join Date: 08-2011
Location: xa tít mù...
Posts: 7,952
Send a message via ICQ to love6985 Send a message via AIM to love6985 Send a message via Yahoo to love6985 Send a message via Skype™ to love6985
Re: AKB48 - Tất cả post vào đây!

(Trailer) Maeda Atsuko in Australia


Code:
http://www.mediafire.com/?hrukakh2o6he8ud


[Variety][TS]130807 Maeda Atsuko - Going the earth of Australia
[1080P/17.4G/Degree Edition]














Mediainfo:

Code:
Video
ID                                       : 320 (0x140)
Menu ID                                  : 171 (0xAB)
Format                                   : MPEG Video
Format version                           : Version 2
Format profile                           : Main@High
Format settings, BVOP                    : Yes
Format settings, Matrix                  : Custom
Format settings, GOP                     : M=3, N=12
Codec ID                                 : 2
Duration                                 : 1h 56mn
Bit rate mode                            : Variable
Bit rate                                 : 20.3 Mbps
Maximum bit rate                         : 24.0 Mbps
Width                                    : 1 920 pixels
Height                                   : 1 080 pixels
Display aspect ratio                     : 16:9
Frame rate                               : 29.970 fps
Color space                              : YUV
Chroma subsampling                       : 4:2:0
Bit depth                                : 8 bits
Scan type                                : Interlaced
Scan order                               : Bottom Field First
Compression mode                         : Lossy
Bits/(Pixel*Frame)                       : 0.326
Time code of first frame                 : 14:19:38;16
Time code source                         : Group of pictures header
Stream size                              : 16.5 GiB (94%)
Color primaries                          : BT.709
Transfer characteristics                 : BT.709
Matrix coefficients                      : BT.709

Audio
ID                                       : 321 (0x141)
Menu ID                                  : 171 (0xAB)
Format                                   : AAC
Format/Info                              : Advanced Audio Codec
Format version                           : Version 2
Format profile                           : LC
Muxing mode                              : ADTS
Codec ID                                 : 15
Duration                                 : 1h 56mn
Bit rate mode                            : Variable
Bit rate                                 : 192 Kbps
Channel(s)                               : 2 channels
Channel positions                        : Front: L R
Sampling rate                            : 48.0 KHz
Compression mode                         : Lossy
Delay relative to video                  : -323ms
Stream size                              : 160 MiB (1%)
DOWNLOAD:
Code:
Link: http://pan.baidu.com/share/link?shareid=1726780251&uk=3557628144
Pass: 6h3p
Extracting passwords: Acchan by haima
Bản 720p

前田敦子 希少動物の大地 オーストラリアをゆく (2013.08.07).mp4 (1.76GB)

Code:
Pass:m49b

http://pan.baidu.com/share/link?shareid=4180937963&uk=1647389285

Last edited by love6985; 21-09-2013 at 11:03.
Reply With Quote