View Single Post
  #84172  
Old 15-05-2013, 19:05
love6985's Avatar
love6985 love6985 is offline
Đã tốn tiền
 
Join Date: 08-2011
Location: xa tít mù...
Posts: 8,011
Send a message via ICQ to love6985 Send a message via AIM to love6985 Send a message via Yahoo to love6985 Send a message via Skype™ to love6985
Re: AKB48 - Tất cả post vào đây!

(Blu-ray) Atsuko Maeda in Phuket - Muboubi





Code:
General
ID                                       : 0 (0x0)
Complete name                            : H:\BDMV\STREAM\00010.m2ts
Format                                   : BDAV
Format/Info                              : Blu-ray Video
File size                                : 13.7 GiB
Duration                                 : 53mn 25s
Overall bit rate mode                    : Variable
Overall bit rate                         : 36.6 Mbps
Maximum Overall bit rate                 : 48.0 Mbps

Video
ID                                       : 4113 (0x1011)
Menu ID                                  : 1 (0x1)
Format                                   : AVC
Format/Info                              : Advanced Video Codec
Format profile                           : High@L4.1
Format settings, CABAC                   : Yes
Format settings, ReFrames                : 2 frames
Codec ID                                 : 27
Duration                                 : 53mn 25s
Bit rate mode                            : Variable
Bit rate                                 : 30.6 Mbps
Maximum bit rate                         : 37.0 Mbps
Width                                    : 1 920 pixels
Height                                   : 1 080 pixels
Display aspect ratio                     : 16:9
Frame rate                               : 29.970 fps
Color space                              : YUV
Chroma subsampling                       : 4:2:0
Bit depth                                : 8 bits
Scan type                                : MBAFF
Bits/(Pixel*Frame)                       : 0.492
Stream size                              : 11.4 GiB (83%)
Color primaries                          : BT.709
Transfer characteristics                 : BT.709
Matrix coefficients                      : BT.709

Audio #1
ID                                       : 4352 (0x1100)
Menu ID                                  : 1 (0x1)
Format                                   : PCM
Format settings, Endianness              : Big
Format settings, Sign                    : Signed
Muxing mode                              : Blu-ray
Codec ID                                 : 128
Duration                                 : 53mn 25s
Bit rate mode                            : Constant
Bit rate                                 : 1 536 Kbps
Channel(s)                               : 2 channels
Channel positions                        : Front: L R
Sampling rate                            : 48.0 KHz
Bit depth                                : 16 bits
Stream size                              : 587 MiB (4%)

Audio #2
ID                                       : 4353 (0x1101)
Menu ID                                  : 1 (0x1)
Format                                   : PCM
Format settings, Endianness              : Big
Format settings, Sign                    : Signed
Muxing mode                              : Blu-ray
Codec ID                                 : 128
Duration                                 : 53mn 25s
Bit rate mode                            : Constant
Bit rate                                 : 1 536 Kbps
Channel(s)                               : 2 channels
Channel positions                        : Front: L R
Sampling rate                            : 48.0 KHz
Bit depth                                : 16 bits
Stream size                              : 587 MiB (4%)

Audio #3
ID                                       : 4354 (0x1102)
Menu ID                                  : 1 (0x1)
Format                                   : PCM
Format settings, Endianness              : Big
Format settings, Sign                    : Signed
Muxing mode                              : Blu-ray
Codec ID                                 : 128
Duration                                 : 53mn 25s
Bit rate mode                            : Constant
Bit rate                                 : 1 536 Kbps
Channel(s)                               : 2 channels
Channel positions                        : Front: L R
Sampling rate                            : 48.0 KHz
Bit depth                                : 16 bits
Stream size                              : 587 MiB (4%)
Code:
http://pan.baidu.com/share/link?shareid=150851&uk=2334887633
http://pan.baidu.com/share/link?shareid=131277&uk=757853136
http://pan.baidu.com/share/link?shareid=150042&uk=2804629200

[BDRIP]前田敦子『無防備』1080p(3.93GB)



Code:
http://pan.baidu.com/share/link?shareid=503527&uk=641189371
Pass: 6s58

Last edited by love6985; 12-10-2013 at 12:21.
Reply With Quote